Kovach.rs
Vesti: Igrice --> Arcade
 
*
Dobrodošli, Gost. Molim vas prijavite se ili se registrujte.




Prijavite se korisničkim imenom, lozinkom i dužinom sesije


Dobrodošli, Gost. Molim vas prijavite se ili se registrujte.
Novembar 10, 2017, 20:03:47

Prijavite se korisničkim imenom, lozinkom i dužinom sesije
članova
Ukupno članova: 185692
Najnoviji: Bobbohops
Statistika
Ukupno poruka: 185083
Ukupno tema: 4466
Prisutnih danas: 13
Najviše prisutnih: 564
(Jul 28, 2013, 16:27:16)
Prisutni korisnici
Korisnika: 0
Gostiju: 22
Ukupno: 22
Stranice: [1]   Idi dole
  Štampaj  123
Autor Tema: Children of the Dog Star (1984)  (Pročitano 1799 puta)
0 članova i 1 gost pregledaju ovu temu.
lemonzoo
Member
*
Van mreže Van mreže

Poruke: 20



Pogledaj profil
« poslato: Jun 21, 2012, 12:15:15 »

Children of the Dog Star (TV Mini-Series 1984)



Kod:
http://www.imdb.com/title/tt0271902/

On holiday at her uncle's farm in New Zealand, Gretchen befriends Ronny, a Maori boy with a troubled city past, and Bevis the birdwatching son of a loathed developer. Tension is already high as the developer wants to buy and drain a local swamp for a housing estate, but Ronny's uncle is the guardian of a traditional Maori tapu (taboo/curse) upon the swamp. The swamp must not be touched—something sleeps there that must not be awakened. Something unnatural.

Gradually, the children discover the pieces of an ancient alien space probe named Kolob. During the series they assemble the missing parts and strange things start to happen. The probe was one of three sent to earth to educate the human race in science. In the end a communication link is set up with the star Sirius B, from where the probe came, and the aliens tell them they should not have interfered.

Citat
General
Complete name                            : D:\ivan-za kopiranje\TV\Children of the Dog Star (1984)\Children of the Dog Star-episode_1_the_brass_daisy(DVDRip).avi
Format                                   : AVI
Format/Info                              : Audio Video Interleave
File size                                : 286 MiB
Duration                                 : 24mn 1s
Overall bit rate                         : 1 666 Kbps

Video
ID                                       : 0
Format                                   : MPEG-4 Visual
Format settings, BVOP                    : 1
Format settings, QPel                    : No
Format settings, GMC                     : No warppoints
Format settings, Matrix                  : Default (H.263)
Muxing mode                              : Packed bitstream
Codec ID                                 : DX50
Codec ID/Hint                            : DivX 5
Duration                                 : 24mn 1s
Bit rate                                 : 1 400 Kbps
Width                                    : 704 pixels
Height                                   : 576 pixels
Display aspect ratio                     : 1.222
Frame rate                               : 25.000 fps
Standard                                 : PAL
Color space                              : YUV
Chroma subsampling                       : 4:2:0
Bit depth                                : 8 bits
Scan type                                : Progressive
Compression mode                         : Lossy
Bits/(Pixel*Frame)                       : 0.138
Stream size                              : 241 MiB (84%)
Title                                    : Video
Writing library                          : DivX 6.8.5 (UTC 2009-08-20)

Audio
ID                                       : 1
Format                                   : AC-3
Format/Info                              : Audio Coding 3
Mode extension                           : CM (complete main)
Format settings, Endianness              : Big
Codec ID                                 : 2000
Duration                                 : 24mn 1s
Bit rate mode                            : Constant
Bit rate                                 : 256 Kbps
Channel(s)                               : 2 channels
Channel positions                        : Front: L R
Sampling rate                            : 48.0 KHz
Bit depth                                : 16 bits
Compression mode                         : Lossy
Stream size                              : 44.0 MiB (15%)
Alignment                                : Split accross interleaves
Interleave, duration                     : 40 ms (1.00 video frame)
Interleave, preload duration             : 500 ms
Title                                    : Audio








Complete Series

Kod:
01 http://depositfiles.com/files/r1yzzvy91
02 http://depositfiles.com/files/j1mzapot0
03 http://depositfiles.com/files/bzs9e8318
04 http://depositfiles.com/files/ee9yp9svt
05 http://depositfiles.com/files/glmfscp2a
06 http://depositfiles.com/files/an3v841bc

Or

Kod:
01 http://www.share-online.biz/dl/TJWQLN5MBOB
02 http://www.share-online.biz/dl/1TL7GP5MBX
03 http://www.share-online.biz/dl/98FDOP5MTR
04 http://www.share-online.biz/dl/3E933V5MVG
05 http://www.share-online.biz/dl/CNPKIY5MKL35
06 http://www.share-online.biz/dl/YR5HET5M1V

Or

Kod:
01 ...error-download from another host..
02 http://asfile.com/file/Zg7Lf48
03 http://asfile.com/file/G1v6G3o
04 http://asfile.com/file/W8lVvdg
05 http://asfile.com/file/vlqlQ8L
06 http://asfile.com/file/V90wyCF

Or

Kod:
https://rapidshare.com/files/3162131440/CotDS01_yuforum.net.rar
https://rapidshare.com/files/3572486147/Children_of_the_Dog_Star-episode_2_power_stop_DVDRip_.avi
https://rapidshare.com/files/3053723242/Children_of_the_Dog_Star-episode_3_swamp_light_DVDRip_.avi
https://rapidshare.com/files/2190099988/Children_of_the_Dog_Star-episode_4_alien_summons_DVDRip_.avi
https://rapidshare.com/files/2554226951/Children_of_the_Dog_Star-episode_5_kolob_DVDRip_.avi
https://rapidshare.com/files/3033808573/Children_of_the_Dog_Star-episode_6_alien_contact_DVDRip_.avi

Or

Kod:
http://bitshare.com/files/uyi7g1ji/CotDS01_yuforum.net.rar.html
02 ...error-download from another host...
03 ...error-download from another host...
04 ...error-download from another host...
http://bitshare.com/files/yxd6jaty/Children-of-the-Dog-Star-episode_5_kolob-DVDRip-.avi.html
06 ...error-download from another host...

Or

Kod:
01 http://hitfile.net/CCA8
02 ...error-download from another host...
03 ...error-download from another host...
04 ...error-download from another host...
05 http://hitfile.net/wXji
06 ...error-download from another host...

Or

Kod:
01 http://www.sendspace.com/file/d2t7bi
02 http://www.sendspace.com/file/k2t2gl
03 http://www.sendspace.com/file/b18cpk
04 http://www.sendspace.com/file/rg73ct
05 http://www.sendspace.com/file/kyrieo
06 http://www.sendspace.com/file/gi6rtw

Or

Kod:
01 http://turbobit.net/Brwr.html
02 ...error-download from another host...
03 ...error-download from another host...
04 ...error-download from another host...
05 http://turbobit.net/ZSBH.html
06 ...error-download from another host...

Or

Kod:
http://www.filefactory.com/file/23ouhvxxymdt/n/CotDS01_yuforum.net.rar
http://www.filefactory.com/file/7lam507nw275/n/Children_of_the_Dog_Star-episode_2_power_stop_DVDRip_.avi
http://www.filefactory.com/file/755z5ibj2q8z/n/Children_of_the_Dog_Star-episode_3_swamp_light_DVDRip_.avi
http://www.filefactory.com/file/1bd0yzfiq2ht/n/Children_of_the_Dog_Star-episode_4_alien_summons_DVDRip_.avi
http://www.filefactory.com/file/57ics0bxf7r3/n/Children_of_the_Dog_Star-episode_5_kolob_DVDRip_.avi
06 ...error-download from another host...



HD covers

Kod:
https://www.rapidshare.com/files/478761717/CotDS__jacket-outside_.png
https://www.rapidshare.com/files/2955596111/CotDS__jacket-inside_.png
https://www.rapidshare.com/files/2344377147/CotDS__disc_.png
Sačuvana
Stranice: [1]   Idi gore
  Štampaj  123
 
Prebaci se na:  

Pokreće MySQL Pokreće PHP Powered by SMF 1.1.19 | SMF © 2006, Simple Machines | TinyPortal v0.9.8 © Bloc

Copyright © 2003-2013 by kovach
Ispravan XHTML 1.0! Ispravan CSS! Dilber MC Theme by HarzeM